<?xml version="1.0" standalone="no"?>
<!DOCTYPE svg PUBLIC "-//W3C//DTD SVG 1.1//EN" "http://www.w3.org/Graphics/SVG/1.1/DTD/svg11.dtd" >
<svg xmlns="http://www.w3.org/2000/svg">
<metadata>Generated by IcoMoon</metadata>
<defs>
<font id="gform-icons-theme" horiz-adv-x="1024">
<font-face units-per-em="1024" ascent="960" descent="-64" />
<missing-glyph horiz-adv-x="1024" />
<glyph unicode="&#x20;" horiz-adv-x="512" d="" />
<glyph unicode="&#xe900;" glyph-name="info" d="M341.333 746.667h341.333c70.694 0 128-57.308 128-128v-341.333c0-70.694-57.306-128-128-128h-341.333c-70.692 0-128 57.306-128 128v341.333c0 70.692 57.308 128 128 128zM512 618.667c-23.565 0-42.667-19.103-42.667-42.667s19.102-42.667 42.667-42.667c23.565 0 42.667 19.103 42.667 42.667s-19.102 42.667-42.667 42.667zM512 490.667c-23.565 0-42.667-19.102-42.667-42.667v-128c0-23.565 19.102-42.667 42.667-42.667s42.667 19.102 42.667 42.667v128c0 23.565-19.102 42.667-42.667 42.667z" />
<glyph unicode="&#xe901;" glyph-name="verified" d="M814.545 419.913c14.067 16.085 14.067 40.090 0 56.175l-32.789 37.495c-7.693 8.798-11.443 20.365-10.368 32.003l4.557 49.496c1.967 21.312-12.164 40.781-33.033 45.521l-48.286 10.967c-11.447 2.6-21.316 9.801-27.285 19.909l-25.323 42.871c-10.914 18.478-33.852 25.975-53.572 17.507l-45.389-19.491c-10.748-4.616-22.921-4.616-33.668 0l-45.44 19.511c-19.699 8.459-42.615 0.987-53.542-17.457l-25.265-42.643c-5.993-10.115-15.895-17.309-27.366-19.883l-48.132-10.8c-20.921-4.694-35.109-24.185-33.146-45.536l4.57-49.74c1.067-11.608-2.662-23.149-10.321-31.934l-32.943-37.803c-14.019-16.090-13.997-40.060 0.050-56.119l32.839-37.551c7.691-8.794 11.439-20.356 10.371-31.991l-4.576-49.796c-1.958-21.308 12.17-40.772 33.037-45.513l48.326-10.974c11.427-2.598 21.284-9.779 27.257-19.861l25.251-42.62c10.948-18.479 33.925-25.937 53.641-17.412l45.346 19.605c10.773 4.659 22.985 4.672 33.771 0.043l45.376-19.486c19.699-8.461 42.615-0.99 53.547 17.455l25.297 42.701c5.973 10.082 15.829 17.263 27.255 19.857l48.32 10.978c20.868 4.74 34.999 24.209 33.033 45.521l-4.557 49.493c-1.075 11.639 2.675 23.206 10.368 32.004l32.789 37.495zM451.699 333.939l-67.699 68.267c-11.093 11.093-11.093 29.013 0 40.107l1.991 1.988c11.093 11.093 29.297 11.093 40.391 0l15.598-15.693c16.657-16.759 43.767-16.789 60.463-0.064l116.224 116.451c11.093 11.093 29.299 11.093 40.393 0l1.988-1.991c11.093-11.092 11.093-29.012 0-40.105l-168.388-168.96c-11.665-11.093-29.585-11.093-40.96 0z" />
<glyph unicode="&#xe902;" glyph-name="circle-check" d="M192 460.8c0-176.739 143.262-320 320-320s320 143.261 320 320c0 176.738-143.261 320-320 320s-320-143.262-320-320zM371.516 472.059c9.62 9.62 25.199 9.62 34.818 0l56.439-54.333 154.9 152.783c9.62 9.62 25.194 9.62 34.82 0 9.62-9.62 9.62-25.197 0-34.82l-189.714-191.82-91.257 93.366c-9.62 9.62-9.62 25.2 0 34.82z" />
<glyph unicode="&#xe903;" glyph-name="circle-close" d="M810.667 448c0-164.949-133.717-298.667-298.667-298.667s-298.667 133.717-298.667 298.667c0 164.949 133.718 298.667 298.667 298.667s298.667-133.718 298.667-298.667zM634.116 569.946c-14.95 14.952-39.151 14.957-54.11 0.016l-67.989-67.852-68.006 68.006c-14.959 14.957-39.169 14.957-54.127 0s-14.957-39.168 0-54.127l67.993-67.989-67.993-67.989c-14.957-14.959-14.957-39.168 0-54.127 14.957-14.955 39.168-14.955 54.127 0l67.989 67.994 67.989-67.994c14.959-14.955 39.168-14.955 54.127 0 14.955 14.959 14.955 39.168 0 54.127l-67.994 67.989 67.994 67.989c14.788 14.788 14.788 39.169 0 53.956z" />
<glyph unicode="&#xe904;" glyph-name="close-big" d="M698.825 691.503c16.661 16.662 43.678 16.662 60.339 0l3.661-3.66c16.661-16.662 16.661-43.677 0-60.34l-183.164-183.164 183.164-183.164c16.661-16.661 16.661-43.678 0-60.339l-3.661-3.661c-16.661-16.661-43.678-16.661-60.339 0l-183.164 183.164-183.164-183.164c-16.662-16.661-43.677-16.661-60.34 0l-3.66 3.661c-16.662 16.661-16.662 43.678 0 60.339l183.164 183.164-183.164 183.164c-16.662 16.662-16.662 43.677 0 60.34l3.66 3.66c16.662 16.662 43.677 16.662 60.34 0l183.164-183.164 183.164 183.164z" />
<glyph unicode="&#xe905;" glyph-name="close-small" d="M634.321 570.127c-7.573 7.572-19.806 7.572-27.375 0l-94.946-94.752-94.944 94.946c-7.572 7.572-19.804 7.572-27.376 0s-7.572-19.804 0-27.376l94.946-94.944-94.946-94.946c-7.572-7.569-7.572-19.802 0-27.375s19.804-7.573 27.376 0l94.944 94.946 94.946-94.946c7.569-7.573 19.802-7.573 27.375 0s7.573 19.806 0 27.375l-94.946 94.946 94.946 94.944c7.377 7.378 7.377 19.804 0 27.182zM591.876 585.227c15.902 15.888 41.63 15.883 57.527-0.015 15.71-15.709 15.71-41.643 0-57.353l-79.859-79.859 79.859-79.859c15.906-15.902 15.906-41.643 0-57.545-15.902-15.906-41.643-15.906-57.545 0l-79.859 79.859-79.859-79.859c-15.904-15.906-41.643-15.906-57.547 0-15.903 15.902-15.903 41.643 0 57.545l79.861 79.859-79.861 79.859c-15.903 15.904-15.903 41.643 0 57.547s41.643 15.903 57.547 0l79.876-79.874 79.859 79.695zM606.946 570.127l-94.946-94.752-94.944 94.946c-7.572 7.572-19.804 7.572-27.376 0s-7.572-19.804 0-27.376l94.946-94.944-94.946-94.946c-7.572-7.569-7.572-19.802 0-27.375s19.804-7.573 27.376 0l94.944 94.946 94.946-94.946c7.569-7.573 19.802-7.573 27.375 0s7.573 19.806 0 27.375l-94.946 94.946 94.946 94.944c7.377 7.378 7.377 19.804 0 27.182-7.573 7.572-19.806 7.572-27.375 0z" />
<glyph unicode="&#xe906;" glyph-name="down-arrow" d="M334.461 562.734l177.769-175.982 177.766 175.982c17.869 17.688 46.733 17.688 64.602 0s17.869-46.262 0-63.952l-210.3-208.183c-17.865-17.685-46.733-17.685-64.597 0l-210.3 208.183c-17.868 17.69-17.868 46.263 0 63.952 17.869 17.235 47.191 17.688 65.060 0v0z" />
<glyph unicode="&#xe907;" glyph-name="format-bold" d="M665.6 499.627c41.387 28.587 70.4 75.52 70.4 119.040 0 96.427-74.667 170.667-170.667 170.667h-224c-23.467 0-42.667-19.2-42.667-42.667v-512c0-23.467 19.2-42.667 42.667-42.667h246.613c88.32 0 168.96 72.107 169.387 160.853 0.427 65.28-36.267 121.173-91.733 146.773zM426.667 682.667h128c35.413 0 64-28.587 64-64s-28.587-64-64-64h-128v128zM576 298.667h-149.333v128h149.333c35.413 0 64-28.587 64-64s-28.587-64-64-64z" />
<glyph unicode="&#xe908;" glyph-name="format-italic" d="M426.667 725.333c0-35.413 28.587-64 64-64h30.293l-145.92-341.333h-55.040c-35.413 0-64-28.587-64-64s28.587-64 64-64h213.333c35.413 0 64 28.587 64 64s-28.587 64-64 64h-30.293l145.92 341.333h55.040c35.413 0 64 28.587 64 64s-28.587 64-64 64h-213.333c-35.413 0-64-28.587-64-64z" />
<glyph unicode="&#xe909;" glyph-name="format-list-bulleted" d="M170.667 512c-35.413 0-64-28.587-64-64s28.587-64 64-64c35.413 0 64 28.587 64 64s-28.587 64-64 64zM170.667 768c-35.413 0-64-28.587-64-64s28.587-64 64-64c35.413 0 64 28.587 64 64s-28.587 64-64 64zM170.667 256c-35.413 0-64-29.013-64-64s29.013-64 64-64c34.987 0 64 29.013 64 64s-28.587 64-64 64zM341.333 149.333h512c23.467 0 42.667 19.2 42.667 42.667s-19.2 42.667-42.667 42.667h-512c-23.467 0-42.667-19.2-42.667-42.667s19.2-42.667 42.667-42.667zM341.333 405.333h512c23.467 0 42.667 19.2 42.667 42.667s-19.2 42.667-42.667 42.667h-512c-23.467 0-42.667-19.2-42.667-42.667s19.2-42.667 42.667-42.667zM298.667 704c0-23.467 19.2-42.667 42.667-42.667h512c23.467 0 42.667 19.2 42.667 42.667s-19.2 42.667-42.667 42.667h-512c-23.467 0-42.667-19.2-42.667-42.667z" />
<glyph unicode="&#xe90a;" glyph-name="format-list-numbered" d="M341.333 661.333h512c23.467 0 42.667 19.2 42.667 42.667s-19.2 42.667-42.667 42.667h-512c-23.467 0-42.667-19.2-42.667-42.667s19.2-42.667 42.667-42.667zM853.333 234.667h-512c-23.467 0-42.667-19.2-42.667-42.667s19.2-42.667 42.667-42.667h512c23.467 0 42.667 19.2 42.667 42.667s-19.2 42.667-42.667 42.667zM853.333 490.667h-512c-23.467 0-42.667-19.2-42.667-42.667s19.2-42.667 42.667-42.667h512c23.467 0 42.667 19.2 42.667 42.667s-19.2 42.667-42.667 42.667zM192 277.333h-85.333c-11.947 0-21.333-9.387-21.333-21.333s9.387-21.333 21.333-21.333h64v-21.333h-21.333c-11.947 0-21.333-9.387-21.333-21.333s9.387-21.333 21.333-21.333h21.333v-21.333h-64c-11.947 0-21.333-9.387-21.333-21.333s9.387-21.333 21.333-21.333h85.333c11.947 0 21.333 9.387 21.333 21.333v128c0 11.947-9.387 21.333-21.333 21.333zM106.667 746.667h21.333v-106.667c0-11.947 9.387-21.333 21.333-21.333s21.333 9.387 21.333 21.333v128c0 11.947-9.387 21.333-21.333 21.333h-42.667c-11.947 0-21.333-9.387-21.333-21.333s9.387-21.333 21.333-21.333zM192 533.333h-85.333c-11.947 0-21.333-9.387-21.333-21.333s9.387-21.333 21.333-21.333h55.467l-71.68-83.627c-3.413-3.84-5.12-8.96-5.12-13.653v-9.387c0-11.947 9.387-21.333 21.333-21.333h85.333c11.947 0 21.333 9.387 21.333 21.333s-9.387 21.333-21.333 21.333h-55.467l71.68 83.627c3.413 3.84 5.12 8.96 5.12 13.653v9.387c0 11.947-9.387 21.333-21.333 21.333z" />
<glyph unicode="&#xe90b;" glyph-name="insert-link" d="M168.969 474.453c11.947 62.72 70.827 105.813 134.827 105.813h125.013c22.187 0 40.533 18.347 40.533 40.533s-18.347 40.533-40.533 40.533h-120.747c-111.36 0-210.773-81.493-221.44-192.427-12.373-127.147 87.467-234.24 212.053-234.24h130.133c22.187 0 40.533 18.347 40.533 40.533s-18.347 40.533-40.533 40.533h-130.133c-81.493 0-145.92 74.24-129.707 158.72zM384.009 405.333h256c23.467 0 42.667 19.2 42.667 42.667s-19.2 42.667-42.667 42.667h-256c-23.467 0-42.667-19.2-42.667-42.667s19.2-42.667 42.667-42.667zM715.955 661.333h-120.747c-22.187 0-40.533-18.347-40.533-40.533s18.347-40.533 40.533-40.533h125.013c64 0 122.88-43.093 134.827-105.813 16.213-84.48-48.213-158.72-129.707-158.72h-130.133c-22.187 0-40.533-18.347-40.533-40.533s18.347-40.533 40.533-40.533h130.133c124.587 0 224.427 107.093 212.48 234.24-10.667 110.933-110.507 192.427-221.867 192.427z" />
<glyph unicode="&#xe90c;" glyph-name="line" d="M384 490.667h256c23.564 0 42.667-19.103 42.667-42.667s-19.103-42.667-42.667-42.667h-256c-23.564 0-42.667 19.103-42.667 42.667s19.103 42.667 42.667 42.667z" />
<glyph unicode="&#xe90d;" glyph-name="password-eye" d="M512 704c-174.545 0-323.607-108.567-384-261.82 60.393-153.25 209.455-261.815 384-261.815s323.605 108.565 384 261.815c-60.395 153.252-209.455 261.82-384 261.82zM512 267.635c-96.349 0-174.545 78.199-174.545 174.545 0 96.351 78.196 174.547 174.545 174.547s174.545-78.196 174.545-174.547c0-96.346-78.195-174.545-174.545-174.545zM512 546.909c-57.95 0-104.727-46.779-104.727-104.729 0-57.946 46.778-104.725 104.727-104.725s104.725 46.78 104.725 104.725c0 57.95-46.775 104.729-104.725 104.729z" />
<glyph unicode="&#xe90e;" glyph-name="password-eye-closed" d="M512 619.859c96.35 0 174.545-78.196 174.545-174.547 0-17.801-3.49-34.906-8.38-50.965l106.825-106.82c48.525 42.935 86.925 96.695 111.010 158.135-60.395 152.903-209.455 261.47-384 261.47-44.335 0-86.924-6.982-127.069-19.898l75.754-75.753c16.405 4.887 33.51 8.378 51.315 8.378zM187.695 736.456c-13.615-13.615-13.615-35.607 0-49.222l68.771-68.771c-56.553-45.033-101.585-104.377-128.465-173.151 60.393-153.25 209.455-261.815 384-261.815 53.060 0 103.68 10.47 150.46 28.625l94.95-94.955c13.615-13.615 35.61-13.615 49.225 0 13.611 13.615 13.611 35.61 0 49.225l-569.369 570.064c-13.615 13.615-35.956 13.615-49.571 0zM512 270.767c-96.349 0-174.545 78.199-174.545 174.545 0 26.88 6.284 52.365 17.105 74.709l54.807-54.81c-1.047-6.285-2.095-12.915-2.095-19.9 0-57.946 46.778-104.725 104.727-104.725 6.98 0 13.265 1.045 19.9 2.445l54.805-54.81c-22.69-11.17-47.825-17.455-74.705-17.455zM615.68 456.832c-5.235 48.875-43.635 86.926-92.16 92.162l92.16-92.162z" />
<glyph unicode="&#xe90f;" glyph-name="redo" d="M785.067 507.733c-78.933 68.693-181.333 110.933-294.4 110.933-177.492 0-330.238-103.253-402.772-253.013-13.653-28.587 1.707-62.72 32-72.96 25.173-8.533 52.48 3.413 64 27.307 55.467 113.493 171.947 192 306.772 192 83.2 0 159.147-30.72 218.453-80.213l-81.493-81.493c-26.88-26.88-8.107-72.96 29.867-72.96h238.507c23.467 0 42.667 19.2 42.667 42.667v238.507c0 37.973-46.080 57.173-72.96 30.293l-80.64-81.067z" />
<glyph unicode="&#xe910;" glyph-name="left-arrow" d="M602.496 344.93c21.559-20.339 21.559-53.79 0-74.133-20.723-19.554-54.298-19.802-74.961-0.307l-148.7 140.309c-21.558 20.343-21.558 53.794 0 74.133l148.7 140.31c20.855 19.677 54.11 19.677 74.961 0 21.559-20.342 21.559-53.793 0-74.134l-109.252-103.087 109.252-103.091z" />
<glyph unicode="&#xe911;" glyph-name="schedule" d="M810.667 789.333h-42.667v42.667c0 23.467-19.2 42.667-42.667 42.667s-42.667-19.2-42.667-42.667v-42.667h-341.333v42.667c0 23.467-19.2 42.667-42.667 42.667s-42.667-19.2-42.667-42.667v-42.667h-42.667c-47.36 0-84.907-38.4-84.907-85.333l-0.427-597.333c0-46.933 37.973-85.333 85.333-85.333h597.333c46.933 0 85.333 38.4 85.333 85.333v597.333c0 46.933-38.4 85.333-85.333 85.333zM810.667 149.333c0-23.467-19.2-42.667-42.667-42.667h-512c-23.467 0-42.667 19.2-42.667 42.667v426.667h597.333v-426.667zM298.667 490.667h85.333v-85.333h-85.333v85.333zM469.333 490.667h85.333v-85.333h-85.333v85.333zM640 490.667h85.333v-85.333h-85.333v85.333z" />
<glyph unicode="&#xe912;" glyph-name="clock" d="M511.573 874.667c-235.52 0-426.24-191.147-426.24-426.667s190.72-426.667 426.24-426.667c235.947 0 427.093 191.147 427.093 426.667s-191.147 426.667-427.093 426.667zM512 106.667c-188.587 0-341.333 152.747-341.333 341.333s152.747 341.333 341.333 341.333c188.587 0 341.333-152.747 341.333-341.333s-152.747-341.333-341.333-341.333zM502.613 661.333h-2.56c-17.067 0-30.72-13.653-30.72-30.72v-201.387c0-14.933 7.68-29.013 20.907-36.693l177.067-106.24c14.507-8.533 33.28-4.267 41.813 10.24 8.96 14.507 4.267 33.707-10.667 42.24l-165.12 98.133v193.707c0 17.067-13.653 30.72-30.72 30.72v0z" />
<glyph unicode="&#xe913;" glyph-name="search" d="M661.316 362.671h-33.707l-11.947 11.52c51.2 59.733 77.653 141.227 63.147 227.84-20.053 118.613-119.040 213.333-238.507 227.84-180.478 22.187-332.371-129.707-310.185-310.187 14.507-119.467 109.227-218.453 227.84-238.507 86.611-14.507 168.105 11.947 227.838 63.147l11.52-11.947v-33.707l181.333-181.333c17.493-17.493 46.080-17.493 63.573 0s17.493 46.080 0 63.573l-180.907 181.76zM405.318 362.671c-106.24 0-192 85.76-192 192s85.76 192 192 192c106.238 0 191.998-85.76 191.998-192s-85.76-192-191.998-192z" />
<glyph unicode="&#xe914;" glyph-name="star" d="M531.942 187.648l-178.473-85.461c-6.936-3.319-14.64-4.706-22.298-4.006s-14.984 3.452-21.204 7.974c-6.221 4.518-11.104 10.637-14.134 17.702-3.030 7.070-4.093 14.822-3.078 22.447l26.197 196.139-136.491 143.275c-5.314 5.568-9.021 12.471-10.73 19.981-1.708 7.505-1.355 15.334 1.025 22.656s6.695 13.862 12.49 18.93c5.795 5.068 12.853 8.473 20.426 9.856l194.603 35.712 94.121 174.080c3.657 6.774 9.079 12.432 15.689 16.375s14.161 6.026 21.858 6.026c7.697 0 15.253-2.082 21.862-6.026s12.028-9.602 15.684-16.375l94.080-174.080 194.645-35.712c7.573-1.382 14.635-4.788 20.429-9.856s10.108-11.609 12.489-18.93c2.381-7.322 2.735-15.151 1.024-22.656-1.707-7.509-5.414-14.413-10.731-19.981l-136.448-143.275 26.155-196.139c1.015-7.625-0.047-15.377-3.076-22.447-3.029-7.066-7.915-13.184-14.135-17.702-6.221-4.523-13.547-7.275-21.205-7.974-7.654-0.7-15.36 0.687-22.298 4.006l-178.475 85.461z" />
<glyph unicode="&#xe915;" glyph-name="star-border" d="M531.942 282.257l144.179-69.035-21.133 158.464 110.242 115.755-157.286 28.86-76.011 140.642-76.041-140.642-157.225-28.851 110.281-115.763-21.164-158.455 144.158 69.026zM292.754 146.304l26.197 196.139-136.491 143.275c-5.314 5.568-9.021 12.471-10.73 19.981-1.708 7.505-1.355 15.334 1.025 22.656s6.695 13.862 12.49 18.93c5.795 5.068 12.853 8.473 20.426 9.856l194.603 35.712 94.121 174.080c3.657 6.773 9.079 12.432 15.689 16.375s14.161 6.026 21.858 6.026c7.697 0 15.253-2.082 21.862-6.026s12.028-9.602 15.684-16.375l94.080-174.080 194.645-35.712c7.573-1.382 14.635-4.788 20.429-9.856s10.108-11.609 12.489-18.93c2.381-7.322 2.735-15.151 1.024-22.656-1.707-7.509-5.414-14.413-10.731-19.981l-136.448-143.275 26.155-196.139c1.015-7.625-0.047-15.377-3.076-22.447-3.029-7.066-7.915-13.184-14.135-17.702-6.221-4.523-13.547-7.275-21.205-7.974-7.654-0.7-15.36 0.687-22.298 4.006l-178.475 85.461-178.473-85.461c-6.936-3.319-14.64-4.706-22.298-4.006s-14.984 3.452-21.204 7.974c-6.221 4.518-11.104 10.637-14.134 17.702-3.030 7.070-4.093 14.822-3.078 22.447z" />
<glyph unicode="&#xe916;" glyph-name="star-half" d="M819.499 555.627l-206.507 17.92-80.64 189.867c-14.507 34.56-64 34.56-78.507 0l-80.642-190.293-206.080-17.493c-37.547-2.987-52.907-49.92-24.32-74.667l156.587-135.68-46.933-201.387c-8.533-36.693 31.147-65.707 63.573-46.080l177.068 106.667 177.067-107.093c32.427-19.627 72.107 9.387 63.573 46.080l-46.933 201.813 156.587 135.68c28.587 24.747 13.653 71.68-23.893 74.667v0zM493.099 284.267v396.8l72.96-172.373 186.88-16.213-141.653-122.88 42.667-182.613-160.853 97.28z" />
<glyph unicode="&#xe917;" glyph-name="check" d="M430.383 377.297l-88.362 82.419c-9.931 9.263-25.974 9.263-35.906 0s-9.931-24.226 0-33.489l106.444-99.281c9.932-9.263 25.973-9.263 35.906 0l269.419 251.285c9.933 9.263 9.933 24.226 0 33.489-9.929 9.263-25.971 9.263-35.904 0l-251.597-234.423zM430.391 406.464l-73.82 68.851c-18.127 16.905-46.881 16.905-65.007 0-18.975-17.698-18.975-46.993 0-64.691l106.444-99.277c18.126-16.909 46.881-16.909 65.006 0l269.423 251.283c18.974 17.698 18.974 46.993 0 64.69-18.129 16.906-46.882 16.906-65.007 0l-237.039-220.856zM342.021 459.716l88.362-82.419 251.597 234.423c9.933 9.263 25.975 9.263 35.904 0 9.933-9.263 9.933-24.226 0-33.489l-269.419-251.285c-9.933-9.263-25.975-9.263-35.906 0l-106.444 99.281c-9.931 9.263-9.931 24.226 0 33.489s25.975 9.263 35.906 0z" />
<glyph unicode="&#xe918;" glyph-name="undo" d="M533.333 618.667c-113.067 0-215.467-42.24-294.4-110.933l-80.64 80.64c-26.88 26.88-72.96 8.107-72.96-29.867v-238.507c0-23.467 19.2-42.667 42.667-42.667h238.507c37.973 0 57.173 46.080 30.293 72.96l-81.493 81.493c59.307 49.493 134.827 80.213 218.453 80.213 134.827 0 251.307-78.507 306.773-192 11.52-23.893 38.827-35.84 64-27.307 30.293 9.813 45.653 44.373 32 73.387-73.387 149.333-226.133 252.587-403.2 252.587z" />
<glyph unicode="&#xe919;" glyph-name="unfold-more" d="M519.36 728.64l104.96-104.96c16.64-16.64 43.52-16.64 60.16 0s16.64 43.52 0 60.16l-135.253 135.68c-16.64 16.64-43.52 16.64-60.16 0l-135.253-135.68c-16.64-16.64-16.64-43.52 0-60.16s43.52-16.64 60.16 0l105.387 104.96zM519.36 202.133l-104.96 104.96c-16.64 16.64-43.52 16.64-60.16 0s-16.64-43.52 0-60.16l135.253-135.68c16.64-16.64 43.52-16.64 60.16 0l135.253 135.253c16.64 16.64 16.64 43.52 0 60.16s-43.52 16.64-60.16 0l-105.387-104.533z" />
<glyph unicode="&#xe91a;" glyph-name="circle-error" d="M512 21.333c235.52 0 426.667 191.147 426.667 426.667s-191.147 426.667-426.667 426.667c-235.52 0-426.667-191.147-426.667-426.667s191.147-426.667 426.667-426.667zM512 661.333c23.467 0 42.667-19.2 42.667-42.667v-170.667c0-23.467-19.2-42.667-42.667-42.667s-42.667 19.2-42.667 42.667v170.667c0 23.467 19.2 42.667 42.667 42.667zM469.333 320h85.333v-85.333h-85.333v85.333z" />
<glyph unicode="&#xe91b;" glyph-name="right-arrow" d="M378.836 551.069c-21.559 20.341-21.559 53.793 0 74.134 20.723 19.554 54.299 19.801 74.963 0.306l148.698-140.308c21.559-20.343 21.559-53.794 0-74.133l-148.698-140.309c-20.855-19.678-54.109-19.678-74.963 0-21.558 20.339-21.558 53.794 0 74.133l109.254 103.087-109.254 103.090z" />
<glyph unicode="&#xe91c;" glyph-name="create" d="M128 215.036v-129.707c0-11.947 9.387-21.333 21.333-21.333h129.707c5.547 0 11.093 2.133 14.933 6.4l465.92 465.495-160 160-465.493-465.495c-4.267-4.267-6.4-9.387-6.4-15.36zM883.627 659.624c16.64 16.64 16.64 43.52 0 60.16l-99.84 99.84c-16.64 16.64-43.52 16.64-60.16 0l-78.080-78.080 160-160 78.080 78.080z" />
<glyph unicode="&#xe91d;" glyph-name="cog" d="M780.514 514.56c31.859 11.379 65.993-11.379 70.545-43.234 2.274-13.653 2.274-29.585 2.274-43.238s0-29.581-6.827-43.234c-2.274-27.307-25.033-47.787-52.339-47.787-6.827 0-11.375 0-18.202 2.274-15.932 6.827-31.859-2.274-38.686-15.927s-15.927-29.581-25.033-43.234c-9.101-13.653-6.827-31.859 4.553-40.96 11.379-9.105 18.206-25.033 18.206-40.96 0-15.932-6.827-31.859-20.48-40.96-22.758-18.206-47.787-31.859-72.819-43.238-6.827-2.274-13.653-4.548-20.48-4.548-25.033 0-47.787 18.202-52.339 43.234-2.274 15.927-18.202 27.307-34.133 25.033-15.927-2.278-34.133-2.278-50.061 0-18.206 2.274-31.859-9.105-34.133-25.033-4.553-25.033-27.307-43.234-52.338-43.234-6.827 0-13.653 2.274-20.48 4.548-25.031 11.379-50.062 25.033-72.817 43.238-11.378 9.101-20.48 25.028-20.48 40.96 0 15.927 6.827 31.855 18.204 40.96 11.378 9.101 13.653 27.307 4.551 40.96s-18.205 27.307-25.031 43.234c-6.827 15.927-25.031 22.754-38.684 18.206-31.858-11.379-65.991 11.375-70.543 43.234-2.275 13.653-2.275 29.581-2.275 43.234s0 29.585 2.275 43.238c2.276 27.307 25.031 47.787 52.338 47.787 6.827 0 11.378 0 18.205-2.278 15.929-6.827 31.857 2.278 38.684 15.932 6.827 13.652 15.929 29.581 25.031 43.234 11.378 13.653 9.102 29.582-4.551 40.96-11.377 9.102-18.204 25.031-18.204 40.96s9.102 31.858 20.48 40.96c22.755 18.205 47.787 31.858 75.093 43.235 6.827 2.276 13.653 4.551 20.48 4.551 25.031 0 47.788-18.205 52.336-43.235 2.278-15.929 18.206-27.307 34.133-25.031 15.932 2.275 34.133 2.275 50.065 0 18.202-2.275 31.855 9.102 34.133 25.031 4.548 25.031 27.307 43.235 52.335 43.235 5.402 0 10.803-1.425 17.335-3.147 1.719-0.454 3.52-0.929 5.423-1.404 25.028-11.377 50.061-25.031 72.815-43.235 11.379-9.102 20.48-25.031 20.48-40.96s-6.827-31.858-18.202-43.235c-11.379-9.103-13.653-27.307-4.553-40.96v0c9.101-13.653 18.206-27.307 25.033-43.237 6.827-13.653 25.028-20.48 38.682-15.927zM512.021 314.308c63.714 0 113.775 50.061 113.775 113.779 0 63.714-50.061 113.776-113.775 113.776-63.718 0-113.779-50.062-113.779-113.776 0-63.718 50.060-113.779 113.779-113.779z" />
<glyph unicode="&#xe91e;" glyph-name="photograph" d="M204.8 806.4c-56.554 0-102.4-45.846-102.4-102.4v-512c0-56.557 45.846-102.4 102.4-102.4h614.4c56.557 0 102.4 45.845 102.4 102.4v512c0 56.554-45.845 102.4-102.4 102.4h-614.4zM819.2 192h-614.4l204.8 409.6 153.6-307.2 102.4 204.8 153.6-307.2z" />
</font>
</defs>
</svg>
