<?xml version="1.0" standalone="no"?>
<!DOCTYPE svg PUBLIC "-//W3C//DTD SVG 1.1//EN" "http://www.w3.org/Graphics/SVG/1.1/DTD/svg11.dtd" >
<svg xmlns="http://www.w3.org/2000/svg">
<metadata>Generated by IcoMoon</metadata>
<defs>
<font id="gform-icons-orbital" horiz-adv-x="1024">
<font-face units-per-em="1024" ascent="960" descent="-64" />
<missing-glyph horiz-adv-x="1024" />
<glyph unicode="&#x20;" horiz-adv-x="512" d="" />
<glyph unicode="&#xe900;" glyph-name="check-mark" d="M375.466 318.413l429.597 429.593c26.66 26.659 69.883 26.659 96.543 0s26.66-69.884 0-96.544l-489.936-489.936c-19.995-19.994-52.413-19.994-72.408 0l-216.868 216.868c-26.659 26.66-26.659 69.883 0 96.545 26.66 26.66 69.884 26.66 96.544 0l156.528-156.526z" />
<glyph unicode="&#xe901;" glyph-name="chevron-down" d="M270.996 599.404c19.995 19.995 52.413 19.995 72.408 0l168.596-168.597 168.596 168.597c19.994 19.995 52.413 19.995 72.407 0s19.994-52.413 0-72.408l-204.8-204.799c-19.994-19.994-52.412-19.994-72.408 0l-204.8 204.799c-19.995 19.995-19.995 52.413 0 72.408z" />
<glyph unicode="&#xe902;" glyph-name="chevron-up" d="M753.004 322.196c-19.994-19.994-52.413-19.994-72.407 0l-168.596 168.596-168.596-168.596c-19.995-19.994-52.413-19.994-72.408 0s-19.995 52.413 0 72.407l204.8 204.801c19.995 19.995 52.414 19.995 72.408 0l204.8-204.801c19.994-19.994 19.994-52.413 0-72.407z" />
<glyph unicode="&#xe903;" glyph-name="minus" d="M153.6 460.8c0 28.277 22.923 51.2 51.2 51.2h614.4c28.278 0 51.2-22.923 51.2-51.2 0-28.278-22.922-51.2-51.2-51.2h-614.4c-28.277 0-51.2 22.922-51.2 51.2z" />
<glyph unicode="&#xe904;" glyph-name="x" d="M219.796 753.004c19.995 19.995 52.413 19.995 72.408 0l219.796-219.796 219.796 219.796c19.994 19.995 52.413 19.995 72.407 0s19.994-52.413 0-72.408l-219.796-219.796 219.796-219.796c19.994-19.994 19.994-52.413 0-72.407s-52.413-19.994-72.407 0l-219.796 219.796-219.796-219.796c-19.995-19.994-52.413-19.994-72.408 0s-19.995 52.413 0 72.407l219.796 219.796-219.796 219.796c-19.995 19.995-19.995 52.413 0 72.408z" />
<glyph unicode="&#xe905;" glyph-name="check-mark-simple" d="M701.804 526.996c19.994 19.995 19.994 52.413 0 72.408s-52.413 19.995-72.407 0l-168.596-168.597-66.196 66.197c-19.995 19.995-52.413 19.995-72.408 0s-19.995-52.414 0-72.408l102.4-102.4c19.995-19.994 52.413-19.994 72.408 0l204.799 204.799z" />
<glyph unicode="&#xe906;" glyph-name="exclamation-simple" d="M563.2 256c0-28.278-22.922-51.2-51.2-51.2-28.277 0-51.2 22.922-51.2 51.2s22.923 51.2 51.2 51.2c28.278 0 51.2-22.922 51.2-51.2zM512 716.8c-28.277 0-51.2-22.923-51.2-51.2v-204.8c0-28.278 22.923-51.2 51.2-51.2s51.2 22.922 51.2 51.2v204.8c0 28.277-22.922 51.2-51.2 51.2zM512 716.8c-28.277 0-51.2-22.923-51.2-51.2v-204.8c0-28.278 22.923-51.2 51.2-51.2s51.2 22.922 51.2 51.2v204.8c0 28.277-22.922 51.2-51.2 51.2zM563.2 256c0-28.278-22.922-51.2-51.2-51.2-28.277 0-51.2 22.922-51.2 51.2s22.923 51.2 51.2 51.2c28.278 0 51.2-22.922 51.2-51.2z" />
<glyph unicode="&#xe907;" glyph-name="information-simple" d="M563.2 665.6c0-28.277-22.922-51.2-51.2-51.2-28.277 0-51.2 22.923-51.2 51.2s22.923 51.2 51.2 51.2c28.278 0 51.2-22.923 51.2-51.2zM460.8 512c-28.277 0-51.2-22.923-51.2-51.2 0-28.278 22.923-51.2 51.2-51.2v-153.6c0-28.278 22.923-51.2 51.2-51.2h51.2c28.278 0 51.2 22.922 51.2 51.2s-22.922 51.2-51.2 51.2v153.6c0 28.277-22.922 51.2-51.2 51.2h-51.2zM460.8 512c-28.277 0-51.2-22.923-51.2-51.2 0-28.278 22.923-51.2 51.2-51.2v-153.6c0-28.278 22.923-51.2 51.2-51.2h51.2c28.278 0 51.2 22.922 51.2 51.2s-22.922 51.2-51.2 51.2v153.6c0 28.277-22.922 51.2-51.2 51.2h-51.2zM563.2 665.6c0-28.277-22.922-51.2-51.2-51.2-28.277 0-51.2 22.923-51.2 51.2s22.923 51.2 51.2 51.2c28.278 0 51.2-22.923 51.2-51.2z" />
<glyph unicode="&#xe908;" glyph-name="question-mark-simple" d="M512.005 614.4c-18.889 0-35.454-10.2-44.384-25.637-14.159-24.477-45.479-32.841-69.956-18.682s-32.841 45.48-18.682 69.957c26.481 45.777 76.102 76.763 133.022 76.763 84.828 0 153.6-68.769 153.6-153.6 0-66.878-42.747-123.776-102.4-144.86v-8.74c0-28.278-22.927-51.2-51.2-51.2-28.279 0-51.202 22.922-51.202 51.2v51.2c0 28.277 22.923 51.2 51.202 51.2 28.273 0 51.2 22.923 51.2 51.2s-22.927 51.2-51.2 51.2zM512 204.8c28.278 0 51.2 22.922 51.2 51.2s-22.922 51.2-51.2 51.2c-28.275 0-51.198-22.922-51.198-51.2s22.923-51.2 51.198-51.2zM467.621 588.763c8.93 15.437 25.495 25.637 44.384 25.637 28.273 0 51.2-22.923 51.2-51.2s-22.927-51.2-51.2-51.2c-28.279 0-51.202-22.923-51.202-51.2v-51.2c0-28.278 22.923-51.2 51.202-51.2 28.273 0 51.2 22.922 51.2 51.2v8.74c59.653 21.084 102.4 77.982 102.4 144.86 0 84.831-68.772 153.6-153.6 153.6-56.92 0-106.541-30.985-133.022-76.763-14.159-24.477-5.795-55.797 18.682-69.957s55.797-5.795 69.956 18.682zM563.2 256c0-28.278-22.922-51.2-51.2-51.2-28.275 0-51.198 22.922-51.198 51.2s22.923 51.2 51.198 51.2c28.278 0 51.2-22.922 51.2-51.2z" />
<glyph unicode="&#xe909;" glyph-name="eye" d="M512 358.4c56.556 0 102.4 45.844 102.4 102.4 0 56.554-45.844 102.4-102.4 102.4-56.553 0-102.399-45.846-102.399-102.4 0-56.556 45.846-102.4 102.399-102.4zM23.438 460.8c65.243-207.724 259.305-358.4 488.56-358.4 229.256 0 423.319 150.676 488.563 358.402-65.244 207.722-259.308 358.398-488.562 358.398-229.256 0-423.319-150.677-488.561-358.4zM716.8 460.8c0-113.106-91.694-204.8-204.8-204.8s-204.799 91.694-204.799 204.8c0 113.108 91.692 204.8 204.799 204.8s204.8-91.692 204.8-204.8z" />
<glyph unicode="&#xe90a;" glyph-name="eye-off" d="M511.999 392.612c38.16 0 69.090 30.546 69.090 68.228s-30.93 68.229-69.090 68.229c-38.159 0-69.093-30.547-69.093-68.229s30.934-68.228 69.093-68.228zM152.244 677.841c-60.281-58.506-106.212-131.716-132.007-213.843 65.243-207.721 259.305-358.398 488.56-358.398 66.65 0 130.327 12.733 188.726 35.907l-10.143 10.051-118.272 116.669c-19.062-5.868-39.316-9.027-60.308-9.027-113.108 0-204.8 91.694-204.8 204.8 0 20.010 2.87 39.351 8.22 57.631l-53.33 52.608-80.825 77.534-25.821 26.068zM705.316 406.154c5.391 18.345 8.284 37.755 8.284 57.846 0 113.108-91.694 204.8-204.799 204.8-20.943 0-41.152-3.144-60.181-8.985l-128.296 126.779c58.332 23.107 121.921 35.806 188.475 35.806 229.255 0 423.318-150.675 488.562-358.398-25.953-82.623-72.284-156.223-133.105-214.909l-158.94 157.061zM913.198 129.244l-59.878 58.68-677.109 669.098c-4.295 4.241-9.394 7.605-15.005 9.901s-11.625 3.476-17.699 3.476c-6.074 0-12.088-1.181-17.699-3.476s-10.71-5.66-15.005-9.901c-8.673-8.565-13.546-20.182-13.546-32.295s4.873-23.73 13.546-32.295l103.178-104.163 80.608-77.326 428.836-423.018 124.365-123.269c4.28-4.265 9.375-7.649 14.991-9.958 5.612-2.309 11.633-3.497 17.71-3.497 6.083 0 12.104 1.188 17.715 3.497 5.617 2.309 10.711 5.693 14.991 9.958 4.316 4.229 7.741 9.257 10.081 14.802s3.543 11.489 3.543 17.495c0 6.001-1.203 11.95-3.543 17.49-2.34 5.545-5.765 10.573-10.081 14.802v0z" />
<glyph unicode="&#xe90b;" glyph-name="check" d="M855.404 701.804c19.994-19.995 19.994-52.413 0-72.408l-409.599-409.599c-19.995-19.994-52.413-19.994-72.408 0l-204.8 204.8c-19.995 19.994-19.995 52.412 0 72.408s52.413 19.995 72.408 0l168.596-168.597 373.396 373.397c19.994 19.995 52.413 19.995 72.407 0z" />
<glyph unicode="&#xe90c;" glyph-name="check-circle" d="M512 51.2c-226.216 0-409.6 183.383-409.6 409.6s183.384 409.6 409.6 409.6c226.217 0 409.6-183.384 409.6-409.6s-183.383-409.6-409.6-409.6zM701.804 526.996c19.994 19.995 19.994 52.413 0 72.408s-52.413 19.995-72.407 0l-168.596-168.597-66.196 66.197c-19.995 19.995-52.413 19.995-72.408 0s-19.995-52.414 0-72.408l102.4-102.4c19.995-19.994 52.413-19.994 72.408 0l204.799 204.799z" />
<glyph unicode="&#xe90d;" glyph-name="selector" d="M512 819.2c13.578 0 26.604-5.394 36.204-14.996l153.6-153.6c19.994-19.995 19.994-52.413 0-72.408s-52.413-19.995-72.407 0l-117.396 117.396-117.396-117.396c-19.995-19.995-52.413-19.995-72.408 0s-19.995 52.413 0 72.408l153.6 153.6c9.602 9.602 22.625 14.996 36.204 14.996zM322.196 343.404c19.995 19.994 52.413 19.994 72.408 0l117.396-117.396 117.396 117.396c19.994 19.994 52.413 19.994 72.407 0s19.994-52.413 0-72.407l-153.6-153.6c-19.994-19.994-52.412-19.994-72.408 0l-153.6 153.6c-19.995 19.994-19.995 52.413 0 72.407z" />
<glyph unicode="&#xe90e;" glyph-name="minus-alt" d="M358.4 512c-28.277 0-51.2-22.923-51.2-51.2 0-28.278 22.923-51.2 51.2-51.2h307.2c28.278 0 51.2 22.922 51.2 51.2 0 28.277-22.922 51.2-51.2 51.2h-307.2z" />
<glyph unicode="&#xe90f;" glyph-name="plus-alt" d="M563.2 614.4c0 28.277-22.922 51.2-51.2 51.2-28.277 0-51.2-22.923-51.2-51.2v-102.4h-102.4c-28.277 0-51.2-22.923-51.2-51.2s22.923-51.2 51.2-51.2h102.4v-102.4c0-28.278 22.923-51.2 51.2-51.2s51.2 22.922 51.2 51.2v102.4h102.4c28.278 0 51.2 22.922 51.2 51.2 0 28.277-22.922 51.2-51.2 51.2h-102.4v102.4z" />
<glyph unicode="&#xe910;" glyph-name="save-as" d="M497.004 599.404c-19.995 19.995-52.413 19.995-72.408 0s-19.995-52.413 0-72.408l153.601-153.599c19.994-19.994 52.413-19.994 72.407 0l153.6 153.599c19.994 19.995 19.994 52.413 0 72.408s-52.413 19.995-72.407 0l-66.196-66.196v183.592h153.6c56.556 0 102.4-45.846 102.4-102.4v-256c0-56.556-45.844-102.4-102.4-102.4h-409.6c-56.554 0-102.4 45.844-102.4 102.4v256c0 56.554 45.846 102.4 102.4 102.4h153.6v-183.592l-66.196 66.196zM563.2 819.2c0 28.277 22.922 51.2 51.2 51.2s51.2-22.923 51.2-51.2v-102.4h-102.4v102.4zM204.8 512c-56.554 0-102.4-45.846-102.4-102.4v-256c0-56.556 45.846-102.4 102.4-102.4h409.6c56.556 0 102.4 45.844 102.4 102.4h-512v358.4z" />
<glyph unicode="&#xe911;" glyph-name="cloud-upload-alt" d="M512.005 528.155l17.91 18.292c-9.953 9.744-25.868 9.744-35.82 0l17.91-18.292zM688.625 319.391c10.102-9.892 26.312-9.718 36.204 0.384s9.723 26.307-0.384 36.198l-35.82-36.582zM299.564 355.973c-10.102-9.892-10.273-26.097-0.382-36.198s26.1-10.276 36.202-0.384l-35.82 36.582zM486.4 0c0-14.136 11.462-25.6 25.6-25.6 14.136 0 25.6 11.464 25.6 25.6h-51.2zM537.6 515.346c0 14.138-11.464 25.6-25.6 25.6-14.138 0-25.6-11.462-25.6-25.6h51.2zM800.23 542.061l-25.59-0.708 0.62-22.526 22.426-2.239 2.545 25.473zM313.723 745.261v0zM224.057 590.995l5.275-25.051 16.403 3.454 3.393 16.416-25.071 5.18zM109.644 527.107v0zM270.372 166.615v-25.6h0.232l-0.232 25.6zM271.148 166.62v25.6h-0.232l0.232-25.6zM308.098 141.020c14.139 0 25.6 11.464 25.6 25.6 0 14.141-11.461 25.6-25.6 25.6v-51.2zM717.696 192.225c-14.136 0-25.6-11.464-25.6-25.6 0-14.141 11.464-25.6 25.6-25.6v51.2zM779.402 166.625l0.271 25.6h-0.271v-25.6zM780.575 166.61l-0.271-25.6h0.271v25.6zM494.095 509.862l194.53-190.472 35.82 36.582-194.529 190.473-35.82-36.584zM335.384 319.391l194.531 190.472-35.82 36.584-194.531-190.473 35.82-36.582zM537.6 0v515.346h-51.2v-515.346h51.2zM825.82 542.77c-4.649 167.822-145.295 302.030-316.515 302.030v-51.2c144.386 0 261.48-113.026 265.335-252.247l51.18 1.417zM509.305 844.8c-78.693 0-154.222-28.515-212.592-80.407l34.018-38.265c48.892 43.467 112.281 67.472 178.573 67.472v51.2zM296.714 764.393c-50.277-44.697-84.369-103.581-97.726-168.218l50.141-10.361c11.098 53.704 39.458 102.846 81.604 140.314l-34.018 38.265zM218.783 616.046c-48.727-10.26-93.26-34.956-127.723-71.332l37.168-35.213c27.24 28.752 62.459 48.307 101.104 56.444l-10.549 50.102zM91.058 544.712c-42.145-44.494-65.458-102.589-65.458-163.502h51.2c0 47.677 18.199 93.209 51.43 128.293l-37.172 35.209zM25.6 381.21c0-132.972 110.293-240.195 244.772-240.195v51.2c-107.226 0-193.572 85.309-193.572 188.995h-51.2zM270.604 141.015l0.776 0.005-0.464 51.2-0.776-0.005 0.464-51.2zM271.148 141.020h36.95v51.2h-36.95v-51.2zM717.696 141.025h61.706v51.2h-61.706v-51.2zM779.136 141.025l1.167-0.010 0.543 51.195-1.172 0.015-0.538-51.2zM780.575 141.010c119.624 0 217.825 95.391 217.825 213.816h-51.2c0-89.134-74.255-162.616-166.625-162.616v-51.2zM998.4 354.826c0 111.017-86.318 201.795-195.63 212.708l-5.084-50.947c84.291-8.417 149.514-78.203 149.514-161.762h51.2z" />
<glyph unicode="&#xe912;" glyph-name="arrow-up" d="M168.596 475.796c-19.995 19.995-19.995 52.413 0 72.408l307.2 307.2c19.995 19.995 52.414 19.995 72.408 0l307.2-307.2c19.994-19.995 19.994-52.413 0-72.408-19.994-19.993-52.413-19.993-72.407 0l-219.796 219.796v-593.192c0-28.278-22.922-51.2-51.2-51.2-28.277 0-51.2 22.922-51.2 51.2v593.192l-219.796-219.796c-19.995-19.993-52.413-19.993-72.408 0z" />
<glyph unicode="&#xe913;" glyph-name="arrow-narrow-right" d="M629.396 701.804c19.994 19.995 52.413 19.995 72.407 0l204.8-204.8c19.994-19.995 19.994-52.414 0-72.408l-204.8-204.8c-19.994-19.994-52.413-19.994-72.407 0s-19.994 52.413 0 72.407l117.396 117.396h-593.193c-28.277 0-51.2 22.922-51.2 51.2 0 28.277 22.923 51.2 51.2 51.2h593.193l-117.396 117.396c-19.994 19.995-19.994 52.413 0 72.408z" />
<glyph unicode="&#xe914;" glyph-name="arrow-down" d="M855.404 445.804c19.994-19.994 19.994-52.413 0-72.407l-307.2-307.2c-19.994-19.994-52.412-19.994-72.408 0l-307.2 307.2c-19.995 19.994-19.995 52.413 0 72.407 19.995 19.995 52.413 19.995 72.408 0l219.796-219.796v593.193c0 28.277 22.923 51.2 51.2 51.2s51.2-22.923 51.2-51.2v-593.193l219.796 219.796c19.994 19.995 52.413 19.995 72.407 0z" />
<glyph unicode="&#xe915;" glyph-name="arrow-left" d="M497.004 117.396c-19.995-19.994-52.413-19.994-72.408 0l-307.2 307.2c-19.995 19.994-19.995 52.412 0 72.408l307.2 307.2c19.995 19.995 52.413 19.995 72.408 0 19.993-19.995 19.993-52.413 0-72.408l-219.796-219.796h593.192c28.278 0 51.2-22.923 51.2-51.2 0-28.278-22.922-51.2-51.2-51.2h-593.192l219.796-219.796c19.993-19.994 19.993-52.413 0-72.407z" />
<glyph unicode="&#xe916;" glyph-name="arrow-right" d="M526.996 804.204c19.994 19.995 52.413 19.995 72.407 0l307.2-307.2c19.994-19.995 19.994-52.414 0-72.408l-307.2-307.2c-19.994-19.994-52.413-19.994-72.407 0s-19.995 52.413 0 72.407l219.796 219.796h-593.193c-28.277 0-51.2 22.922-51.2 51.2 0 28.277 22.923 51.2 51.2 51.2h593.193l-219.796 219.796c-19.995 19.995-19.995 52.413 0 72.408z" />
<glyph unicode="&#xe917;" glyph-name="search" d="M409.6 768c-113.108 0-204.8-91.692-204.8-204.8 0-113.106 91.692-204.8 204.8-204.8 113.106 0 204.8 91.694 204.8 204.8 0 113.108-91.694 204.8-204.8 204.8zM102.4 563.2c0 169.662 137.538 307.2 307.2 307.2s307.2-137.538 307.2-307.2c0-66.346-21.033-127.78-56.796-177.997l246.6-246.6c19.994-19.994 19.994-52.413 0-72.407s-52.413-19.994-72.407 0l-246.6 246.6c-50.217-35.763-111.65-56.796-177.997-56.796-169.662 0-307.2 137.539-307.2 307.2z" />
<glyph unicode="&#xe918;" glyph-name="x-circle" d="M512 51.2c-226.216 0-409.6 183.383-409.6 409.6s183.384 409.6 409.6 409.6c226.217 0 409.6-183.384 409.6-409.6s-183.383-409.6-409.6-409.6zM445.804 599.404c-19.995 19.995-52.413 19.995-72.408 0s-19.995-52.413 0-72.408l66.196-66.196-66.196-66.196c-19.995-19.994-19.995-52.413 0-72.407s52.413-19.994 72.408 0l66.196 66.196 66.196-66.196c19.994-19.994 52.413-19.994 72.407 0s19.994 52.413 0 72.407l-66.196 66.196 66.196 66.196c19.994 19.995 19.994 52.413 0 72.408s-52.413 19.995-72.407 0l-66.196-66.196-66.196 66.196z" />
<glyph unicode="&#xe919;" glyph-name="trash" d="M460.8 870.4c-19.393 0-37.122-10.957-45.795-28.303l-37.048-74.097h-173.157c-28.277 0-51.2-22.923-51.2-51.2s22.923-51.2 51.2-51.2v-512c0-56.556 45.846-102.4 102.4-102.4h409.6c56.556 0 102.4 45.844 102.4 102.4v512c28.278 0 51.2 22.923 51.2 51.2s-22.922 51.2-51.2 51.2h-173.158l-37.048 74.097c-8.673 17.346-26.399 28.303-45.793 28.303h-102.4zM358.4 563.2c0 28.277 22.923 51.2 51.2 51.2s51.2-22.923 51.2-51.2v-307.2c0-28.278-22.923-51.2-51.2-51.2s-51.2 22.922-51.2 51.2v307.2zM614.4 614.4c28.278 0 51.2-22.923 51.2-51.2v-307.2c0-28.278-22.922-51.2-51.2-51.2s-51.2 22.922-51.2 51.2v307.2c0 28.277 22.922 51.2 51.2 51.2z" />
<glyph unicode="&#xe91a;" glyph-name="calendar-alt" d="M808.96 788.48h-40.96v40.96c0 22.528-18.432 40.96-40.96 40.96s-40.96-18.432-40.96-40.96v-40.96h-327.68v40.96c0 22.528-18.432 40.96-40.96 40.96s-40.96-18.432-40.96-40.96v-40.96h-40.96c-45.466 0-81.51-36.864-81.51-81.92l-0.41-573.44c0-45.056 36.454-81.92 81.92-81.92h573.44c45.056 0 81.92 36.864 81.92 81.92v573.44c0 45.056-36.864 81.92-81.92 81.92zM808.96 174.080c0-22.528-18.432-40.96-40.96-40.96h-491.52c-22.528 0-40.96 18.432-40.96 40.96v409.6h573.44v-409.6zM317.44 460.8c0 22.622 18.338 40.96 40.96 40.96s40.96-18.338 40.96-40.96c0-22.62-18.338-40.96-40.96-40.96s-40.96 18.34-40.96 40.96zM481.28 460.8c0 22.622 18.338 40.96 40.96 40.96 22.62 0 40.96-18.338 40.96-40.96 0-22.62-18.34-40.96-40.96-40.96-22.622 0-40.96 18.34-40.96 40.96zM645.12 460.8c0 22.622 18.34 40.96 40.96 40.96s40.96-18.338 40.96-40.96c0-22.62-18.34-40.96-40.96-40.96s-40.96 18.34-40.96 40.96z" />
<glyph unicode="&#xe91b;" glyph-name="chevron-left" d="M650.604 701.804c19.994-19.995 19.994-52.413 0-72.408l-168.596-168.596 168.596-168.596c19.994-19.994 19.994-52.413 0-72.407s-52.413-19.994-72.407 0l-204.801 204.8c-19.995 19.994-19.995 52.412 0 72.408l204.801 204.8c19.994 19.995 52.413 19.995 72.407 0z" />
<glyph unicode="&#xe91c;" glyph-name="chevron-right" d="M373.396 219.796c-19.995 19.994-19.995 52.413 0 72.407l168.597 168.596-168.597 168.596c-19.995 19.995-19.995 52.413 0 72.408s52.413 19.995 72.408 0l204.799-204.8c19.994-19.995 19.994-52.414 0-72.408l-204.799-204.8c-19.995-19.994-52.413-19.994-72.408 0z" />
<glyph unicode="&#xe91d;" glyph-name="chevron-double-left" d="M804.204 168.596c-19.994-19.994-52.413-19.994-72.407 0l-256.001 256c-19.995 19.994-19.995 52.412 0 72.408l256.001 256c19.994 19.995 52.413 19.995 72.407 0s19.994-52.413 0-72.408l-219.796-219.796 219.796-219.796c19.994-19.994 19.994-52.413 0-72.407zM497.004 168.596c-19.995-19.994-52.413-19.994-72.408 0l-256 256c-19.995 19.994-19.995 52.412 0 72.408l256 256c19.995 19.995 52.413 19.995 72.408 0 19.993-19.995 19.993-52.413 0-72.408l-219.796-219.796 219.796-219.796c19.993-19.994 19.993-52.413 0-72.407z" />
<glyph unicode="&#xe91e;" glyph-name="chevron-double-right" d="M526.996 168.596c-19.995 19.994-19.995 52.413 0 72.407l219.796 219.796-219.796 219.796c-19.995 19.995-19.995 52.413 0 72.408s52.413 19.995 72.407 0l256-256c19.994-19.995 19.994-52.414 0-72.408l-256-256c-19.994-19.994-52.413-19.994-72.407 0zM219.796 168.596c-19.995 19.994-19.995 52.413 0 72.407l219.796 219.796-219.796 219.796c-19.995 19.995-19.995 52.413 0 72.408s52.413 19.995 72.408 0l255.999-256c19.994-19.995 19.994-52.414 0-72.408l-255.999-256c-19.995-19.994-52.413-19.994-72.408 0z" />
<glyph unicode="&#xe91f;" glyph-name="arrow-sm-left" d="M498.258 191.314c-22.358-22.358-58.609-22.358-80.964 0l-229.003 229.003c-22.358 22.358-22.358 58.609 0 80.964l229.003 229.003c22.358 22.358 58.609 22.358 80.964 0s22.358-58.609 0-80.964l-131.268-131.268h434.294c31.618 0 57.251-25.634 57.251-57.251s-25.633-57.251-57.251-57.251h-434.294l131.268-131.268c22.358-22.358 22.358-58.609 0-80.963z" />
<glyph unicode="&#xe920;" glyph-name="arrow-sm-right" d="M531.792 730.286c22.358 22.358 58.609 22.358 80.964 0l229.003-229.003c22.358-22.358 22.358-58.609 0-80.964l-229.003-229.003c-22.358-22.358-58.609-22.358-80.964 0s-22.358 58.608 0 80.963l131.268 131.268h-434.294c-31.617 0-57.251 25.634-57.251 57.251s25.634 57.251 57.251 57.251h434.294l-131.268 131.268c-22.358 22.358-22.358 58.609 0 80.964z" />
<glyph unicode="&#xe921;" glyph-name="arrow-back" d="M497.004 117.396c-19.995-19.994-52.413-19.994-72.408 0l-204.8 204.8c-19.995 19.994-19.995 52.413 0 72.407l204.8 204.801c19.995 19.995 52.413 19.995 72.408 0 19.993-19.995 19.993-52.413 0-72.408l-117.396-117.396h337.192c28.278 0 51.2-22.922 51.2-51.2s-22.922-51.2-51.2-51.2h-337.192l117.396-117.396c19.993-19.994 19.993-52.413 0-72.407zM716.8 768c0 28.277 22.922 51.2 51.2 51.2s51.2-22.923 51.2-51.2v-358.4c0-56.556-45.844-102.4-102.4-102.4v460.8z" />
<glyph unicode="&#xe922;" glyph-name="photograph" d="M204.8 819.2c-56.576 0-102.4-45.824-102.4-102.4v-512c0-56.576 45.824-102.4 102.4-102.4h614.4c56.576 0 102.4 45.824 102.4 102.4v512c0 56.576-45.824 102.4-102.4 102.4h-614.4zM819.2 204.8h-614.4l204.8 409.6 153.6-307.2 102.4 204.8 153.6-307.2z" />
</font>
</defs>
</svg>
