<?xml version="1.0" standalone="no"?>
<!DOCTYPE svg PUBLIC "-//W3C//DTD SVG 1.1//EN" "http://www.w3.org/Graphics/SVG/1.1/DTD/svg11.dtd" >
<svg xmlns="http://www.w3.org/2000/svg">
<metadata>Generated by IcoMoon</metadata>
<defs>
<font id="gform-icons-common" horiz-adv-x="1024">
<font-face units-per-em="1024" ascent="960" descent="-64" />
<missing-glyph horiz-adv-x="1024" />
<glyph unicode="&#x20;" horiz-adv-x="512" d="" />
<glyph unicode="&#xe900;" glyph-name="arrow-narrow-left" d="M394.604 219.796c-19.995-19.994-52.413-19.994-72.408 0l-204.8 204.8c-19.995 19.994-19.995 52.412 0 72.408l204.8 204.8c19.995 19.995 52.413 19.995 72.408 0s19.995-52.413 0-72.408l-117.396-117.396h593.192c28.278 0 51.2-22.923 51.2-51.2s-22.922-51.2-51.2-51.2h-593.192l117.396-117.396c19.995-19.994 19.995-52.413 0-72.407z" />
<glyph unicode="&#xe901;" glyph-name="arrow-narrow-right" d="M629.397 701.804c19.994 19.995 52.413 19.995 72.407 0l204.8-204.8c19.994-19.995 19.994-52.414 0-72.408l-204.8-204.8c-19.994-19.994-52.413-19.994-72.407 0s-19.994 52.413 0 72.407l117.396 117.396h-593.193c-28.277 0-51.2 22.922-51.2 51.2s22.923 51.2 51.2 51.2h593.193l-117.396 117.396c-19.994 19.995-19.994 52.413 0 72.408z" />
<glyph unicode="&#xe902;" glyph-name="check-circle" d="M512 28.8c238.591 0 432 193.409 432 432s-193.409 432-432 432c-238.59 0-432-193.41-432-432s193.41-432 432-432zM712.184 530.615l-215.999-215.999c-21.087-21.087-55.276-21.087-76.37 0l-108 107.999c-21.087 21.087-21.087 55.276 0 76.37s55.276 21.087 76.37 0l69.815-69.816 177.816 177.816c21.087 21.087 55.277 21.087 76.369 0s21.087-55.276 0-76.37z" />
<glyph unicode="&#xe903;" glyph-name="check-mark-alt" d="M957.804 753.004c19.994-19.995 19.994-52.413 0-72.408l-563.199-563.199c-19.995-19.994-52.413-19.994-72.408 0l-256 256c-19.995 19.994-19.995 52.413 0 72.407 19.995 19.995 52.413 19.995 72.408 0l219.796-219.796 526.996 526.997c19.994 19.995 52.413 19.995 72.407 0z" />
<glyph unicode="&#xe904;" glyph-name="check-mark" d="M375.466 318.413l429.597 429.593c26.66 26.659 69.883 26.659 96.543 0s26.66-69.884 0-96.544l-489.936-489.936c-19.995-19.994-52.413-19.994-72.408 0l-216.868 216.868c-26.659 26.66-26.659 69.883 0 96.545 26.66 26.66 69.884 26.66 96.544 0l156.528-156.526z" />
<glyph unicode="&#xe905;" glyph-name="chevron-down" d="M270.997 599.403c19.995 19.995 52.413 19.995 72.408 0l168.596-168.597 168.596 168.597c19.994 19.995 52.413 19.995 72.407 0s19.994-52.413 0-72.408l-204.8-204.799c-19.994-19.994-52.413-19.994-72.408 0l-204.8 204.799c-19.995 19.995-19.995 52.413 0 72.408z" />
<glyph unicode="&#xe906;" glyph-name="chevron-up" d="M753.003 322.196c-19.994-19.994-52.413-19.994-72.407 0l-168.596 168.596-168.596-168.596c-19.995-19.994-52.413-19.994-72.408 0s-19.995 52.413 0 72.407l204.8 204.801c19.994 19.995 52.414 19.995 72.408 0l204.8-204.801c19.994-19.994 19.994-52.413 0-72.407z" />
<glyph unicode="&#xe907;" glyph-name="x" d="M219.797 753.003c19.995 19.995 52.413 19.995 72.408 0l219.796-219.796 219.796 219.796c19.994 19.995 52.413 19.995 72.407 0s19.994-52.413 0-72.408l-219.796-219.796 219.796-219.796c19.994-19.994 19.994-52.413 0-72.407s-52.413-19.994-72.407 0l-219.796 219.796-219.796-219.796c-19.995-19.994-52.413-19.994-72.408 0s-19.995 52.413 0 72.407l219.796 219.796-219.796 219.796c-19.995 19.995-19.995 52.413 0 72.408z" />
<glyph unicode="&#xe908;" glyph-name="pencil" d="M695.592 789.206c39.988 39.99 104.825 39.99 144.813 0 39.99-39.99 39.99-104.825 0-144.814l-40.594-40.594-144.813 144.815 40.594 40.594zM582.59 676.203l-428.988-428.988v-144.813h144.815l428.986 428.986-144.813 144.815z" />
<glyph unicode="&#xe909;" glyph-name="eye" d="M511.999 360.802c55.23 0 99.998 44.771 99.998 99.998s-44.769 99.998-99.998 99.998c-55.228 0-99.997-44.771-99.997-99.998s44.771-99.998 99.997-99.998zM34.897 460.798c63.713-202.849 253.223-349.991 477.101-349.991s413.39 147.142 477.105 349.996c-63.715 202.849-253.225 349.991-477.104 349.991s-413.39-147.143-477.102-349.996zM711.996 460.8c0-110.455-89.543-199.996-199.996-199.996s-199.996 89.541-199.996 199.996 89.541 199.996 199.996 199.996c110.452 0 199.996-89.541 199.996-199.996z" />
<glyph unicode="&#xe90a;" glyph-name="credit-card" d="M204.8 768c-56.554 0-102.4-45.846-102.4-102.4v0-51.2h819.2v51.2c0 56.554-45.846 102.4-102.4 102.4v0h-614.4zM921.6 512h-819.2v-256c0-56.554 45.846-102.4 102.4-102.4v0h614.4c56.554 0 102.4 45.846 102.4 102.4v0 256zM204.8 307.2c0 28.277 22.923 51.2 51.2 51.2v0h51.2c28.277 0 51.2-22.923 51.2-51.2s-22.923-51.2-51.2-51.2v0h-51.2c-28.277 0-51.2 22.923-51.2 51.2v0zM460.8 358.4h51.2c28.277 0 51.2-22.923 51.2-51.2s-22.923-51.2-51.2-51.2h-51.2c-28.277 0-51.2 22.923-51.2 51.2s22.923 51.2 51.2 51.2z" />
<glyph unicode="&#xe90b;" glyph-name="exclamation-circle" d="M944 460.8c0-238.591-193.409-432-432-432s-432 193.409-432 432c0 238.59 193.41 432 432 432s432-193.41 432-432zM566 244.8c0 29.827-24.173 54-54 54s-54-24.173-54-54c0-29.827 24.174-54 54-54s54 24.173 54 54zM512 730.8c-29.826 0-54-24.174-54-54v-216c0-29.826 24.174-54 54-54s54 24.174 54 54v216c0 29.826-24.173 54-54 54z" />
<glyph unicode="&#xe90c;" glyph-name="star" d="M463.305 771.734c15.327 47.171 82.062 47.171 97.386 0l54.764-168.54c6.856-21.096 26.511-35.379 48.696-35.379h177.213c49.597 0 70.221-63.468 30.095-92.621l-143.37-104.163c-17.946-13.036-25.457-36.147-18.601-57.242l54.764-168.54c15.324-47.171-38.661-86.4-78.792-57.247l-143.365 104.166c-17.946 13.036-42.246 13.036-60.191 0l-143.369-104.166c-40.126-29.153-94.115 10.076-78.789 57.247l54.762 168.54c6.854 21.094-0.655 44.206-18.599 57.242l-143.369 104.163c-40.126 29.153-19.504 92.621 30.094 92.621h177.213c22.181 0 41.84 14.283 48.694 35.379l54.762 168.54z" />
<glyph unicode="&#xe90d;" glyph-name="play-arrow" d="M233.73 759.369v-597.138c0-45.557 50.158-73.223 88.776-48.417l469.199 298.569c35.73 22.492 35.73 74.37 0 97.407l-469.199 297.996c-38.64 24.807-88.776-2.86-88.776-48.417z" />
<glyph unicode="&#xe90e;" glyph-name="upload-file" d="M156.4 105.2c0 28.059 22.741 50.8 50.8 50.8h609.6c28.059 0 50.8-22.741 50.8-50.8s-22.741-50.8-50.8-50.8h-609.6c-28.059 0-50.8 22.741-50.8 50.8zM323.678 628.078c-19.837 19.837-19.837 52 0 71.844l152.4 152.4c9.525 9.525 22.447 14.878 35.922 14.878s26.391-5.356 35.922-14.878l152.399-152.4c19.837-19.837 19.837-52 0-71.844s-52-19.837-71.843 0l-65.678 65.679v-385.357c0-28.059-22.741-50.8-50.8-50.8s-50.8 22.741-50.8 50.8v385.357l-65.678-65.679c-19.837-19.837-52-19.837-71.844 0z" />
<glyph unicode="&#xe90f;" glyph-name="photograph" d="M204.8 819.2c-56.554 0-102.4-45.846-102.4-102.4v-512c0-56.556 45.846-102.4 102.4-102.4h614.4c56.556 0 102.4 45.844 102.4 102.4v512c0 56.554-45.844 102.4-102.4 102.4h-614.4zM819.2 204.8h-614.4l204.8 409.6 153.6-307.2 102.4 204.8 153.6-307.2z" />
<glyph unicode="&#xe910;" glyph-name="exclamation" d="M419.952 774.505c40.374 71.781 143.722 71.781 184.097 0l294.669-523.861c39.604-70.403-11.277-157.385-92.046-157.385h-589.343c-80.776 0-131.647 86.989-92.046 157.385l294.672 523.861zM564.801 251.669c0 29.164-23.639 52.809-52.809 52.809s-52.809-23.639-52.809-52.809c0-29.164 23.639-52.809 52.809-52.809s52.809 23.639 52.809 52.809zM512 674.112c-29.162 0-52.809-23.639-52.809-52.809v-158.419c0-29.162 23.639-52.809 52.809-52.809s52.809 23.639 52.809 52.809v158.419c0 29.162-23.639 52.809-52.809 52.809z" />
<glyph unicode="&#xe911;" glyph-name="information-circle" d="M944 460.8c0-238.591-193.409-432-432-432s-432 193.409-432 432c0 238.59 193.41 432 432 432s432-193.41 432-432zM566 676.8c0 29.826-24.174 54-54 54s-54-24.174-54-54c0-29.826 24.174-54 54-54s54 24.174 54 54zM458 514.8c-29.826 0-54-24.174-54-54s24.174-54 54-54v-162c0-29.827 24.174-54 54-54h54c29.826 0 54 24.173 54 54s-24.174 54-54 54v162c0 29.826-24.174 54-54 54h-54z" />
<glyph unicode="&#xe912;" glyph-name="trash" d="M460.8 870.4c-19.392 0-37.12-10.944-45.792-28.288l-37.056-74.112h-173.152c-28.288 0-51.2-22.912-51.2-51.2s22.912-51.2 51.2-51.2v-512c0-56.544 45.856-102.4 102.4-102.4h409.6c56.544 0 102.4 45.856 102.4 102.4v512c28.288 0 51.2 22.912 51.2 51.2s-22.912 51.2-51.2 51.2h-173.152l-37.056 74.112c-8.672 17.344-26.4 28.288-45.792 28.288h-102.4zM358.4 563.2c0 28.288 22.912 51.2 51.2 51.2s51.2-22.912 51.2-51.2v-307.2c0-28.288-22.912-51.2-51.2-51.2s-51.2 22.912-51.2 51.2v307.2zM614.4 614.4c28.288 0 51.2-22.912 51.2-51.2v-307.2c0-28.288-22.912-51.2-51.2-51.2s-51.2 22.912-51.2 51.2v307.2c0 28.288 22.912 51.2 51.2 51.2z" />
<glyph unicode="&#xe913;" glyph-name="eye-off" d="M512 392.602c38.144 0 69.069 30.566 69.069 68.25s-30.925 68.25-69.069 68.25c-38.144 0-69.069-30.566-69.069-68.25s30.925-68.25 69.069-68.25zM152.269 677.837c-60.262-58.522-106.189-131.738-131.994-213.862 65.229-207.718 259.328-358.4 488.55-358.4 66.662 0 130.304 12.749 188.723 35.891l-10.138 10.035-118.272 116.685c-19.046-5.888-39.322-9.011-60.314-9.011-113.101 0-204.8 91.699-204.8 204.8 0 20.019 2.867 39.373 8.243 57.651l-53.35 52.582-80.845 77.517-25.805 26.061zM705.331 406.17c5.376 18.33 8.294 37.734 8.294 57.856 0 113.101-91.699 204.8-204.8 204.8-20.941 0-41.165-3.123-60.16-8.96l-128.307 126.771c58.317 23.091 121.907 35.789 188.467 35.789 229.274 0 423.322-150.682 488.55-358.4-25.958-82.637-72.294-156.211-133.12-214.886l-158.925 157.082zM913.203 129.229l-59.853 58.675-677.12 669.082c-4.301 4.25-9.37 7.629-15.002 9.882s-11.622 3.482-17.715 3.482c-6.093 0-12.083-1.178-17.715-3.482s-10.701-5.683-15.002-9.882c-8.653-8.55-13.568-20.173-13.568-32.307s4.864-23.706 13.568-32.307l103.168-104.141 80.589-77.312 428.851-423.014 124.365-123.29c4.301-4.25 9.37-7.629 15.002-9.933s11.622-3.482 17.715-3.482c6.093 0 12.083 1.178 17.715 3.482s10.701 5.683 15.002 9.933c4.301 4.25 7.731 9.267 10.086 14.797s3.533 11.469 3.533 17.51c0 5.99-1.178 11.93-3.533 17.51s-5.786 10.598-10.086 14.797v0z" />
<glyph unicode="&#xe914;" glyph-name="arrow-path" d="M784 387.904c-40.256-150.208-194.656-239.36-344.896-199.136-49.6 13.312-92.48 38.976-126.24 72.832l-15.936 15.936 124.576 0.032c21.216 0 38.4 17.216 38.4 38.4s-17.184 38.4-38.4 38.4l-217.28-0.032c-10.176 0-19.936-4.064-27.136-11.264s-11.232-16.96-11.232-27.168l0.032-217.184c0-21.216 17.184-38.4 38.4-38.4s38.4 17.184 38.4 38.4l-0.032 124.448 15.872-15.872c43.072-43.136 97.728-75.872 160.736-92.736 191.2-51.232 387.712 62.24 438.944 253.44 5.504 20.48-6.656 41.536-27.136 47.040s-41.536-6.656-47.040-27.168zM846.912 578.496c7.2 7.2 11.264 16.96 11.232 27.168l-0.032 217.184c0 21.216-17.216 38.4-38.4 38.4s-38.4-17.184-38.4-38.4v-124.448l-15.872 15.872c-43.072 43.136-97.728 75.872-160.736 92.736-191.2 51.232-387.712-62.24-438.944-253.44-5.504-20.48 6.656-41.536 27.168-47.040s41.536 6.656 47.040 27.168c40.256 150.208 194.656 239.36 344.896 199.136 49.632-13.28 92.48-38.976 126.24-72.832l15.936-15.936h-124.512c-21.216 0-38.4-17.184-38.4-38.4s17.184-38.4 38.4-38.4h217.216c10.176 0 19.968 4.032 27.168 11.264z" />
<glyph unicode="&#xe915;" glyph-name="document-text" d="M204.8 768c0 56.544 45.856 102.4 102.4 102.4h234.784c27.168 0 53.216-10.784 72.416-29.984l174.816-174.816c19.2-19.2 29.984-45.248 29.984-72.416v-439.584c0-56.544-45.856-102.4-102.4-102.4h-409.6c-56.544 0-102.4 45.856-102.4 102.4v614.4zM307.2 460.8c0-28.288 22.912-51.2 51.2-51.2h307.2c28.288 0 51.2 22.912 51.2 51.2s-22.912 51.2-51.2 51.2h-307.2c-28.288 0-51.2-22.912-51.2-51.2zM358.4 307.2c-28.288 0-51.2-22.912-51.2-51.2s22.912-51.2 51.2-51.2h307.2c28.288 0 51.2 22.912 51.2 51.2s-22.912 51.2-51.2 51.2h-307.2z" />
</font>
</defs>
</svg>
